Classical Guitar Favorites

Category: Tutorial


Posted on 2018-10-27, by everest555.

Description



Classical Guitar Favorites
DVDRip | English | AVI + JPG Tabs | 640 x 464 | XviD ~593 kbps | 29.970 fps
MP3 80 Kbps 48.0 KHz | 1 channel | 02:07:55 | 624 MB
Genre: eLearning Video / Guitar lesson




The Classical Guitar Favorites DVD provides a visual guide for playing six classical guitar pieces. Includes tablature on-screen for every piece.
Includes tablature on-screen for every piece.Content:

Classical Guitar & Techniques Overview (7:34)
Bouree In E Minor (21:33)
Jesu, Joy Of Man's Desiring (19:32)
Leyenda (Excerpt) (23:07)
Malagueña (13:42)
Minuet In G (21:00)
Romance (Gomez) (21:27)

General
Complete name : 02 - Jesu, Joy Of Man's Desiring.avi
Format : AVI
Format/Info : Audio Video Interleave
File size : 95.2 MiB
Duration : 19 min 32 s
Overall bit rate : 681 kb/s
Writing application :
Writing library : VirtualDubMod build 2439/release

Video
ID : 0
Format : MPEG-4 Visual
Format profile : Advanced [email protected]
Format settings : BVOP4 / GMC3 / QPel
Format settings, BVOP : 4
Format settings, QPel : Yes
Format settings, GMC : 3 warppoints
Format settings, Matrix : Default (H.263)
Muxing mode : Packed bitstream
Codec ID : XVID
Codec ID/Hint : XviD
Duration : 19 min 32 s
Bit rate : 593 kb/s
Width : 640 pixels
Height : 464 pixels
Display aspect ratio : 1.379
Frame rate : 29.970 (30000/1001) FPS
Color space : YUV
Chroma subsampling : 4:2:0
Bit depth : 8 bits
Scan type : Progressive
Compression mode : Lossy
Bits/(Pixel*Frame) : 0.067
Stream size : 83.0 MiB (87%)
Writing library : XviD 1.2.1 (UTC 2008-12-04)

Audio
ID : 1
Format : MPEG Audio
Format version : Version 1
Format profile : Layer 3
Codec ID : 55
Codec ID/Hint : MP3
Duration : 19 min 32 s
Bit rate mode : Constant
Bit rate : 80.0 kb/s
Channel(s) : 1 channel
Sampling rate : 48.0 kHz
Compression mode : Lossy
Stream size : 11.2 MiB (12%)
Alignment : Split accross interleaves
Interleave, duration : 167 ms (5.00 video frames)
Interleave, preload duration : 500 ms






I recommends Buy premimum account for High speed+parallel downloads!

Rapidgator

https://rapidgator.net/file/0fb6e1e86f8e1b8ec3c083f20f8e6288/4pmmx.Classical.Guitar.Favorites.rar.html


Nitroflare

http://nitroflare.com/view/074A328A4DAE615/4pmmx.Classical.Guitar.Favorites.rar


Sponsored High Speed Downloads
9926 dl's @ 2667 KB/s
Download Now [Full Version]
8346 dl's @ 2519 KB/s
Download Link 1 - Fast Download
9916 dl's @ 2663 KB/s
Download Mirror - Direct Download



Search More...
Classical Guitar Favorites

Search free ebooks in ebookee.com!


Related Archive Books

Archive Books related to "Classical Guitar Favorites":



Links
Download this book

No active download links here?
Please check the description for download links if any or do a search to find alternative books.


Related Books


Comments

No comments for "Classical Guitar Favorites".


    Add Your Comments
    1. Download links and password may be in the description section, read description carefully!
    2. Do a search to find mirrors if no download links or dead links.
    Back to Top