Coursera - Neural Networks and Deep Learning (Stanford University)

Category: Tutorial


Posted on 2021-12-21, by raymanhero.

Description

9a51146eb84d959d70ee79f61b7b3b83.jpg
Coursera - Neural Networks and Deep Learning (Stanford University)
WEBRip | English | MP4 | 1152 x 720 | AVC ~75.9 kbps | 30 fps
AAC | 128 Kbps | 44.1 KHz | 2 channels | Subs: English (.srt) | ~8 hours | 878 MB
Genre: eLearning Video / Deep Learning, Artificial Intelligence, Machine Learning


=====

If you want to break into cutting-edge AI, this course will help you do so. Deep learning engineers are highly sought after, and mastering deep learning will give you numerous new career opportunities. Deep learning is also a new "superpower" that will let you build AI systems that just weren't possible a few years ago.

In this course, you will learn the foundations of deep learning. When you finish this class, you will:
- Understand the major technology trends driving Deep Learning
- Be able to build, train and apply fully connected deep neural networks
- Know how to implement efficient (vectorized) neural networks
- Understand the key parameters in a neural network's architecture

This course also teaches you how Deep Learning actually works, rather than presenting only a cursory or surface-level description. So after completing it, you will be able to apply deep learning to a your own applications. If you are looking for a job in AI, after this course you will also be able to answer basic interview questions.

This is the first course of the Deep Learning Specialization.

Syllabus

Introduction to deep learning
-Be able to explain the major trends driving the rise of deep learning, and understand where and how it is applied today.

Neural Networks Basics
-Learn to set up a machine learning problem with a neural network mindset. Learn to use vectorization to speed up your models.

Shallow neural networks
-Learn to build a neural network with one hidden layer, using forward propagation and backpropagation.

Deep Neural Networks
-Understand the key computations underlying deep learning, use them to build and train deep neural networks, and apply it to computer vision.

General
Complete name : 020. Vectorizing Logistic Regression.mp4
Format : MPEG-4
Format profile : Base Media
Codec ID : isom (isom/iso2/avc1/mp41)
File size : 11.5 MiB
Duration : 7 min 32 s
Overall bit rate : 213 kb/s
Writing application : Lavf55.33.100

Video
ID : 1
Format : AVC
Format/Info : Advanced Video Codec
Format profile : Main@L3.1
Format settings : CABAC / 4 Ref Frames
Format settings, CABAC : Yes
Format settings, RefFrames : 4 frames
Codec ID : avc1
Codec ID/Info : Advanced Video Coding
Duration : 7 min 32 s
Bit rate : 75.9 kb/s
Width : 1 152 pixels
Height : 720 pixels
Display aspect ratio : 16:10
Frame rate mode : Constant
Frame rate : 30.000 FPS
Color space : YUV
Chroma subsampling : 4:2:0
Bit depth : 8 bits
Scan type : Progressive
Bits/(Pixel*Frame) : 0.003
Stream size : 4.09 MiB (36%)
Writing library : x264 core 142

Audio
ID : 2
Format : AAC
Format/Info : Advanced Audio Codec
Format profile : LC
Codec ID : mp4a-40-2
Duration : 7 min 32 s
Bit rate mode : Constant
Bit rate : 128 kb/s
Channel(s) : 2 channels
Channel positions : Front: L R
Sampling rate : 44.1 kHz
Frame rate : 43.066 FPS (1024 SPF)
Compression mode : Lossy
Stream size : 6.90 MiB (60%)
Default : Yes
Alternate group : 1


Screenshots
f25f6570447afe993fd43abe1ce5fb71.jpg
dc3ef91f096734bacedcbf8d64455f53.jpg

Download link
Nitroflare
Rapidgator

https://rapidgator.net/file/d1d64e6707cbda9d6cc7ae4b8dd1af62/6x2is.Coursera..Neural.Networks.and.Deep.Learning.Stanford.University.part01.rar.html
https://rapidgator.net/file/74724aefefb0d4487b553c4a57c8761d/6x2is.Coursera..Neural.Networks.and.Deep.Learning.Stanford.University.part02.rar.html
https://rapidgator.net/file/479d5578a7c3ffcdaa3ae70abd909717/6x2is.Coursera..Neural.Networks.and.Deep.Learning.Stanford.University.part03.rar.html
https://rapidgator.net/file/9fade21deca34e297807a615c630141f/6x2is.Coursera..Neural.Networks.and.Deep.Learning.Stanford.University.part04.rar.html
https://rapidgator.net/file/02d8571df4082b0cabe48f08a58752db/6x2is.Coursera..Neural.Networks.and.Deep.Learning.Stanford.University.part05.rar.html
https://rapidgator.net/file/2c4a08fa5af70e942996bb220492821b/6x2is.Coursera..Neural.Networks.and.Deep.Learning.Stanford.University.part06.rar.html
https://rapidgator.net/file/2762246b8d76a2e87daf0ee063725e09/6x2is.Coursera..Neural.Networks.and.Deep.Learning.Stanford.University.part07.rar.html
https://rapidgator.net/file/64355e1378ed1ffb53c2b8f2c6b582d8/6x2is.Coursera..Neural.Networks.and.Deep.Learning.Stanford.University.part08.rar.html
https://rapidgator.net/file/72442ebf1ac3a82b6ec2edc184f65634/6x2is.Coursera..Neural.Networks.and.Deep.Learning.Stanford.University.part09.rar.html


Sponsored High Speed Downloads
8684 dl's @ 2124 KB/s
Download Now [Full Version]
9429 dl's @ 3306 KB/s
Download Link 1 - Fast Download
7781 dl's @ 3601 KB/s
Download Mirror - Direct Download



Search More...
Coursera - Neural Networks and Deep Learning (Stanford University)

Search free ebooks in ebookee.com!


Links
Download this book

No active download links here?
Please check the description for download links if any or do a search to find alternative books.


Related Books


Comments

No comments for "Coursera - Neural Networks and Deep Learning (Stanford University)".


    Add Your Comments
    1. Download links and password may be in the description section, read description carefully!
    2. Do a search to find mirrors if no download links or dead links.
    Back to Top