Creating Perspective in Photoshop [repost]

Category: Arts


Posted on 2014-03-10. By anonymous.

Description


Creating Perspective in Photoshop
FLV | VP6 1000kbps | English | 1024x576 | 15fps | 2 hours | MP3 mono 96kbps | 473 MB
Genre: Video Training

You may have perfect mastery of all Photoshop’s tools and filters, but unless you get the perspective right, your montages will always look a little off. In this engaging workshop, author and expert Steve Caplin teaches you how to work with horizons, vanishing lines, and Photoshop´s extraordinary Vanishing Point filter. You’ll also learn how to adapt a photograph so that it fits in with the perspective of any scene in which you want to place it. This course will make you a better Photoshop artist by teaching you essential techniques and taking the mystery out of perspective once and for all.

hy Is Perspective Important?

When Perspective Goes Wrong: Horizons
02:35

Finding the Vanishing Point
04:07

Composing the Scene
05:22

Opening Doors

Drawing the Vanishing Lines
04:08

Selecting the Door
03:03

Drawing the Floor and Wall
06:20

Adding the Interior Door
04:13

Building the Skirting Board
01:50

Adding a Picture
01:24

Painting the Shadows
02:47

Opening the Original Door
05:17

Adding Shading Behind the Door
01:35

Adding the Door's Reflection
07:25

Correcting Perspective

The Perspective Problem
01:27

Correcting the Truck Side
03:05

Correcting the Truck Back
03:10

Adding the Shadow
04:16

Adding the Sign
06:02

The Vanishing Point Filter

Creating the First Perspective Plane
02:09

Creating the Second Perspective Plane
03:13

Tearing Off Additional Planes
02:45

Cloning in Perspective
04:09

Marquee Drawing in Perspective
02:35

Working on New Layers
03:11

Copying the Window
03:02

Extending the Window
03:13

Copying the Door
01:51

Adding New Artwork
05:18

Adding Some Graffiti
02:17

Healing in Vanishing Point
01:30

Rotating a Book
03:11

Perspective Cropping

Photographing from an Angle
01:09

Using Perspective Crop
01:42

Drawing the Diagonals
02:56

Correcting Lens Distortion
04:01

Tidying Up
05:11

Mediainfo:

Format : Flash Video
File size : 19.8 MiB
Duration : 4mn 16s
Overall bit rate : 650 Kbps
Encoded date : Thu Jan 13 14:05:20 2011
Video
Format : VP6
Duration : 4mn 16s
Bit rate : 1 000 Kbps
Width : 1 024 pixels
Height : 576 pixels
Display aspect ratio : 16:9
Frame rate : 15.000 fps
Bits/(Pixel*Frame) : 0.113
Stream size : 30.5 MiB
Audio
Format : MPEG Audio
Format version : Version 1
Format profile : Layer 3
Duration : 4mn 16s
Bit rate mode : Constant
Bit rate : 96.0 Kbps
Channel(s) : 1 channel
Sampling rate : 44.1 KHz
Resolution : 16 bits
Stream size : 2.93 MiB (15%)






No mirrors please

Visit my blog, click here


Sponsored High Speed Downloads
5347 dl's @ 3837 KB/s
Download Now [Full Version]
9953 dl's @ 3400 KB/s
Download Link 1 - Fast Download
9037 dl's @ 3428 KB/s
Download Mirror - Direct Download



Search More...
Creating Perspective in Photoshop [repost]

Search free ebooks in ebookee.com!


Links
Download this book

No active download links here?
Please check the description for download links if any or do a search to find alternative books.


Related Books


Comments

No comments for "Creating Perspective in Photoshop [repost]".


    Add Your Comments
    1. Download links and password may be in the description section, read description carefully!
    2. Do a search to find mirrors if no download links or dead links.
    Back to Top