Foundations of UX: Prototyping (2013)

Category: Technical

Tag: Programming


Posted on 2014-03-10. By anonymous.

Description


Foundations of UX: Prototyping (2013)
MP4 | AVC 305kbps | English | 960x540 | 15fps | 1h 39mins | AAC stereo 128kbps | 441 MB
Genre: Video Training

Prototyping allows designers to quickly and inexpensively explore multiple iterations of designs, test their performance, and craft even better user experiences for websites and applications. Explore what prototypes are, when they are appropriate, and the different strategies for creating prototypes in this introductory course with lynda.com senior author James Williamson. Learn about sketches, wireframes, mockups, and other types of prototypes; the tools that can help you build them; and how to test and refine your designs. This overview will help you decide which prototyping workflow works best for you and your team.

Introduction 1m 18s
Welcome 1m 18s

1. Prototyping Basics 12m 15s
What is a prototype? 2m 1s
How prototyping helps the user experience 2m 44s
Defining prototype goals 4m 25s
Building effective prototypes 3m 5s

2. The Prototyping Processes 1h 6m
Design process overview 3m 33s
Scoping projects 5m 24s
Sketching ideas 3m 21s
Understanding prototype fidelity 4m 19s
Paper prototypes 3m 33s
Paper prototype materials 5m 7s
Paper prototyping techniques 9m 37s
Low-fidelity prototypes 1m 53s
Building low-fidelity prototypes 9m 13s
High-fidelity prototypes 2m 2s
Building high-fidelity prototypes 8m 26s
HTML prototypes 3m 18s
Testing and evaluating prototypes 6m 16s

3. Tools and Resources 18m 49s
Choosing the right tool 2m 57s
Common prototyping tools 4m 37s
Online prototyping tools 3m 29s
Paper prototyping resources 3m 0s
Keynote and PowerPoint resources 2m 15s
Prototyping frameworks 2m 31s

Conclusion 49s
Next steps 49s

Mediainfo:

Format : MPEG-4
Format profile : Base Media / Version 2
Codec ID : mp42
File size : 14.4 MiB
Duration : 4mn 37s
Overall bit rate : 436 Kbps
Encoded date : UTC 2013-08-22 16:35:50
Tagged date : UTC 2013-08-22 16:35:50
Writing library : Apple QuickTime
Copyright : lynda.com
Video #2
ID : 2
Format : AVC
Format/Info : Advanced Video Codec
Format profile : Main@L3.1
Format settings, CABAC : Yes
Format settings, ReFrames : 3 frames
Codec ID : avc1
Codec ID/Info : Advanced Video Coding
Duration : 4mn 37s
Bit rate mode : Variable
Bit rate : 305 Kbps
Width : 960 pixels
Height : 540 pixels
Display aspect ratio : 16:9
Frame rate mode : Constant
Frame rate : 15.000 fps
Resolution : 24 bits
Colorimetry : 4:2:0
Scan type : Progressive
Bits/(Pixel*Frame) : 0.039
Stream size : 10.1 MiB (70%)
Encoded date : UTC 2013-08-22 16:35:50
Tagged date : UTC 2013-08-22 16:35:50
Audio #1
ID : 1
Format : AAC
Format/Info : Advanced Audio Codec
Format version : Version 4
Format profile : LC
Format settings, SBR : No
Format settings, PS : Yes
Codec ID : 40
Duration : 4mn 37s
Bit rate mode : Variable
Bit rate : 128 Kbps
Maximum bit rate : 131 Kbps
Channel(s) : 2 channels
Channel positions : Front: L R
Sampling rate : 48.0 KHz
Resolution : 16 bits
Stream size : 4.24 MiB (29%)
Encoded date : UTC 2013-08-22 16:35:50
Tagged date : UTC 2013-08-22 16:35:50






No mirrors please

Visit my blog, click here


Sponsored High Speed Downloads
9292 dl's @ 2848 KB/s
Download Now [Full Version]
7578 dl's @ 3280 KB/s
Download Link 1 - Fast Download
8544 dl's @ 3971 KB/s
Download Mirror - Direct Download



Search More...
Foundations of UX: Prototyping (2013)

Search free ebooks in ebookee.com!


Links
Download this book

No active download links here?
Please check the description for download links if any or do a search to find alternative books.


Related Books

  1. Ebooks list page : 25461
  2. 2014-06-13Foundations of UX: Prototyping (2013)
  3. 2014-06-12Foundations of UX: Prototyping (2013)
  4. 2014-06-11Foundations of UX: Prototyping (2013)
  5. 2017-09-20UX Foundations: Prototyping (2013)
  6. 2019-01-31Mathematical Foundations of Computer Science 2013 38th International Symposium, MFCS 2013, Kloste - Removed
  7. 2019-01-24Mathematical Foundations of Computer Science 2013 38th International Symposium, MFCS 2013, Kloste...
  8. 2014-04-13Foundations of Logo Design (2013) [repost]
  9. 2014-03-15Foundations of UX Prototyping Training with James Williamson
  10. 2014-01-26WILEY.IMBALANCED.LEARNING.FOUNDATIONS.ALGORITHMS.AND.APPLICATIONS.2013.RETAIL.EBOOK-kE
  11. 2013-12-07MATHEMATICAL FOUNDATIONS OF COMPUTER SCIENCE 2013 38TH INTERNATIONAL SYMPOSIUM, MFCS 2013, KLOSTERNE...
  12. 2013-12-06MATHEMATICAL FOUNDATIONS OF COMPUTER SCIENCE 2013 38TH INTERNATIONAL SYMPOSIUM, MFCS 2013, KLOSTERNE...
  13. 2013-11-19Mathematical Foundations of Computer Science 2013 [Repost]
  14. 2013-09-04Krishnendu Chatterjee, Mathematical Foundations of Computer Science 2013
  15. 2013-08-20Mathematical Foundations of Computer Science 2013
  16. 2013-04-17Foundations of Audio: Reverb (2013)
  17. 2013-02-16Lynda.com - Foundations of Programming: Databases - 2013 [40 mp4] - Removed
  18. 2020-05-19Extended Abstracts Fall 2013: Geometrical Analysis; Type Theory, Homotopy Theory and Univalent Foundations (Trends in Mathematics)
  19. 2018-03-10Design Foundations: Prototyping and Manufacturing
  20. 2018-01-27[PDF] High Value Manufacturing: Advanced Research in Virtual and Rapid Prototyping: Proceedings of the 6th International Conference on Advanced Research in ... Leiria, Portugal, 1-5 October, 2013

Comments

No comments for "Foundations of UX: Prototyping (2013)".


    Add Your Comments
    1. Download links and password may be in the description section, read description carefully!
    2. Do a search to find mirrors if no download links or dead links.
    Back to Top