Ginger Baker - African Force (1987)

Category: Lyrics


Posted on 2019-04-15, by Germany2020.

Description


1904150654270084.jpg



Artist: Ginger Baker
Title: African Force
Year Of Release: 1987
Label: ITM RecordsTM 971417
Genre: Jazz Funk, Free Jazz
Quality: FLAC (image + .cue,log,scans)
Total Time: 34:56
Total Size: 207 MB(+3%)




Tracklist
1. Brain Damage 4:49
2. Sokoto 5:03
3. Ansoumania 6:03
4. Adoa 6:17
5. African Force 12:43
personnel :
Drums - Ginger Baker
Mixed By, Producer, Art Direction, Bass, Guitar, Keyboards - Jan Kazda
Percussion - Francis Mensah
Percussion, Vocals - Ampofo, Ansou Mana Bangoura, J. C. Commodore
Soprano Saxophone, Tenor Saxophone, Baritone Saxophone - Wolfgang Schmidtke
Trombone - Ludwig Götz
1904150654280101.jpg
Exact Audio Copy V1.3 from 2. September 2016
Отчёт EAC об извлечении, выполненном 12. апреля 2019, 23:02
Ginger Baker / African Force - 1987
Дисковод: PIONEER BD-RW BDR-TD03 Adapter: 1 ID: 0
Режим чтения : Достоверность
Использование точного потока : Да
Отключение кэша аудио : Да
Использование указателей C2 : Нет
Коррекция смещения при чтении : 667
Способность читать области Lead-in и Lead-out : Нет
Заполнение пропущенных сэмплов тишиной : Да
Удаление блоков с тишиной в начале и конце : Нет[/center]

При вычислениях CRC использовались нулевые сэмплы : Да
Интерфейс : Встроенный Win32-интерфейс для Win NT/2000
Выходной формат : Пользовательский кодировщик
Выбранный битрейт : 128 kBit/s
Качество : Высокий
Добавление ID3-тега : Нет
Утилита сжатия : C:\Program Files (x86)\Exact Audio Copy\Flac\flac.exe
Дополнительные параметры : -V -8 -T "Date=%year%" -T "Genre=%genre%" %source%
TOC извлечённого CD
Трек | Старт | Длительность | Начальный сектор | Конечный сектор
---------------------------------------------------------------------
1 | 0:00.00 | 4:49.25 | 0 | 21699
2 | 4:49.25 | 5:03.50 | 21700 | 44474
3 | 9:53.00 | 6:03.00 | 44475 | 71699
4 | 15:56.00 | 6:17.00 | 71700 | 99974
5 | 22:13.00 | 12:43.70 | 99975 | 157269
Характеристики диапазона извлечения и сообщения об ошибках
Выбранный диапазон
Имя файла I:\Rip\Ginger Baker - African Force - 1987\Ginger Baker - African Force - 1987.wav
Пиковый уровень 100.0 %
Скорость извлечения 3.9 X
Качество диапазона 99.9 %
CRC теста CCAA9CC4
CRC копии CCAA9CC4
Копирование... OK
Ошибок не произошло

AccurateRip: сводка

Трек 1 : извлечено точно (доверие 5) C8F6050 (AR v2)
Трек 2 : извлечено точно (доверие 5) 58F06E1 (AR v2)
Трек 3 : извлечено точно (доверие 5) [D70AF7D1] (AR v2)
Трек 4 : извлечено точно (доверие 5) [E6C9F204] (AR v2)
Трек 5 : извлечено точно (доверие 5) [D2105EF7] (AR v2)

Все треки извлечены точно
Конец отчёта
---- CUETools DB Plugin V2.1.6
[CTDB TOCID: A_dsBbhWddwL68Qr5yHCUAn4CJw-] found
Submit result: A_dsBbhWddwL68Qr5yHCUAn4CJw- has been confirmed
Track | CTDB Status
1 | (11/11) Accurately ripped
2 | (11/11) Accurately ripped
3 | (11/11) Accurately ripped
4 | (11/11) Accurately ripped
5 | (11/11) Accurately ripped
==== Контрольная сумма отчёта 2D4EE6F27B7A85480B90F955DDA043C575FF2F7B1D77E94F37B16A4DC6EAE734 ====




uploadgig.png
https://uploadgig.com/file/download/948a06D9a5ecaFd9/cvv5f.Ginger.Baker..African.Force.1987.rar
rapidgator.png
https://rapidgator.net/file/9401bf3540906443ec986318403a496b/cvv5f.Ginger.Baker..African.Force.1987.rar
nitroflare.png
http://nitroflare.com/view/E0A8775A78A74DD/cvv5f.Ginger.Baker..African.Force.1987.rar


Sponsored High Speed Downloads
6271 dl's @ 3907 KB/s
Download Now [Full Version]
5178 dl's @ 3841 KB/s
Download Link 1 - Fast Download
9861 dl's @ 2384 KB/s
Download Mirror - Direct Download



Search More...
Ginger Baker - African Force (1987)

Search free ebooks in ebookee.com!


Links
Download this book

No active download links here?
Please check the description for download links if any or do a search to find alternative books.


Related Books


Comments

No comments for "Ginger Baker - African Force (1987)".


    Add Your Comments
    1. Download links and password may be in the description section, read description carefully!
    2. Do a search to find mirrors if no download links or dead links.
    Back to Top