How To Make Tech Trance in Studio One 4 with Bjorn Akesson

Category: Tutorial

Tag: Database/SQL


Posted on 2019-01-28, by nokia241186.

Description




How To Make Tech Trance in Studio One 4 with Bjorn Akesson
WEBRip | German | MP4 + Project Files | 1920 x 1080 | AVC ~417 kbps | 29.970 fps
AAC 159 Kbps 48.0 KHz | 2 channels | 3h 34mn | 1.34 GB
Genre: eLearning Video / Sound Processing, Music Production
This week Sonic Academy proudly welcomes back Swedish born 138 Trance legend Bjorn Akesson for a brand new course in How To Make Tech Trance.



We're also excited as for the first time here at Sonic Academy this awesome monster of a track is created in Presonus Studio One.

Bjorn builds this entirely new tune from the ground up starting with a blank slate firstly creating the drums before moving on to the layered sub and mid bass. We then arrange the basic layout to give the foundation of the track before adding effects, creating the drop and main theme, adding atmosphere, along with a dope acid line and stabs. Throughout this course we check out Bjorn's easy-to-follow, methodical approach to workflow and organisation along with his clever use of automation lines to create tension and move through the transitions of the breakdown and drop.

The end result is a 138 Tech Trance track worthy of any club that's guaranteed to get your heart racing!

And don't worry if you don't use Studio One, this course and the resources included are designed to be followed and used in any DAW so what are you waiting for?

Go check it out and learn from a true Trance master!

Content:

Tutorial 01 - Playthrough and Intro
Tutorial 02 - Drums Part 1
Tutorial 03 - Drums Part 2
Tutorial 04 - Bass
Tutorial 05 - Kick and Sub
Tutorial 06 - Arrangement
Tutorial 07 - FX
Tutorial 08 - Tech Drop
Tutorial 09 - Main Theme
Tutorial 10 - Atmosphere
Tutorial 11 - Synths
Tutorial 12 - Buses
Tutorial 13 - Breakdown Part 1
Tutorial 14 - Breakdown Part 2
Tutorial 15 - Send FX
Tutorial 16 - Main Theme Revisit
Tutorial 17 - Automation
Tutorial 18 - Intro and Outro
Tutorial 19 - Playthrough and Fixes

also You can find my other last:
https://rapu.world/search/?category_slug=&query=Sound%2BProcessing&language=&age=&author=ParRus&search=1

General
Complete name : Tutorial 07 - FX.mp4
Format : MPEG-4
Format profile : Base Media
Codec ID : isom (mp41)
File size : 40.2 MiB
Duration : 9 min 39 s
Overall bit rate mode : Variable
Overall bit rate : 582 kb/s
Encoded date : UTC 2019-01-09 16:12:32
Tagged date : UTC 2019-01-09 16:12:32
Writing application : Bandicam 4.3.0.1479 / GDI / Nvidia NVENC

Video
ID : 1
Format : AVC
Format/Info : Advanced Video Codec
Format profile : High@L4
Format settings : CABAC / 1 Ref Frames
Format settings, CABAC : Yes
Format settings, RefFrames : 1 frame
Codec ID : avc1
Codec ID/Info : Advanced Video Coding
Duration : 9 min 39 s
Bit rate : 417 kb/s
Width : 1 920 pixels
Height : 1 080 pixels
Display aspect ratio : 16:9
Frame rate mode : Variable
Frame rate : 29.970 (29970/1000) FPS
Minimum frame rate : 5.000 FPS
Maximum frame rate : 30.030 FPS
Original frame rate : 30.000 FPS
Color space : YUV
Chroma subsampling : 4:2:0
Bit depth : 8 bits
Scan type : Progressive
Bits/(Pixel*Frame) : 0.007
Stream size : 28.8 MiB (72%)
Language : English
Encoded date : UTC 2019-01-09 16:12:32
Tagged date : UTC 2019-01-09 16:12:32

Audio
ID : 2
Format : AAC
Format/Info : Advanced Audio Codec
Format profile : LC
Codec ID : mp4a-40-2
Duration : 9 min 39 s
Bit rate mode : Variable
Bit rate : 159 kb/s
Maximum bit rate : 306 kb/s
Channel(s) : 2 channels
Channel positions : Front: L R
Sampling rate : 48.0 kHz
Frame rate : 46.875 FPS (1024 SPF)
Compression mode : Lossy
Stream size : 11.0 MiB (27%)
Language : English
Encoded date : UTC 2019-01-09 16:12:32
Tagged date : UTC 2019-01-09 16:12:32

Screenshots






DOWNLOAD
(Buy premium account for maximum speed and resuming ability)


http://nitroflare.com/view/3E37D004121CF6D/amoat.How.To.Make.Tech.Trance.in.Studio.One.4.with.Bjorn.Akesson.part1.rar
http://nitroflare.com/view/E6267CD78BD6655/amoat.How.To.Make.Tech.Trance.in.Studio.One.4.with.Bjorn.Akesson.part2.rar
http://nitroflare.com/view/7CECADFCB3FFCED/amoat.How.To.Make.Tech.Trance.in.Studio.One.4.with.Bjorn.Akesson.part3.rar
http://nitroflare.com/view/AC716E4E808F361/amoat.How.To.Make.Tech.Trance.in.Studio.One.4.with.Bjorn.Akesson.part4.rar
http://nitroflare.com/view/BBFC94261AA8E08/amoat.How.To.Make.Tech.Trance.in.Studio.One.4.with.Bjorn.Akesson.part5.rar
http://nitroflare.com/view/C732291679A3546/amoat.How.To.Make.Tech.Trance.in.Studio.One.4.with.Bjorn.Akesson.part6.rar
http://nitroflare.com/view/454FF251B46E4D2/amoat.How.To.Make.Tech.Trance.in.Studio.One.4.with.Bjorn.Akesson.part7.rar



https://rapidgator.net/file/9d7c856e81f531bf88e3df0fa0c35539/amoat.How.To.Make.Tech.Trance.in.Studio.One.4.with.Bjorn.Akesson.part1.rar
https://rapidgator.net/file/29129751b1ea6927e6382b37f022d8ea/amoat.How.To.Make.Tech.Trance.in.Studio.One.4.with.Bjorn.Akesson.part2.rar
https://rapidgator.net/file/df1fe14e77a1db9a8f927251e5794ed8/amoat.How.To.Make.Tech.Trance.in.Studio.One.4.with.Bjorn.Akesson.part3.rar
https://rapidgator.net/file/8d68ab87c3a627196b807afbf53fb20f/amoat.How.To.Make.Tech.Trance.in.Studio.One.4.with.Bjorn.Akesson.part4.rar
https://rapidgator.net/file/3ed0881e4a315dcae6af60628a89f2f0/amoat.How.To.Make.Tech.Trance.in.Studio.One.4.with.Bjorn.Akesson.part5.rar
https://rapidgator.net/file/2abc16f2d31bc3e1b0d2ea7ab86f5cc1/amoat.How.To.Make.Tech.Trance.in.Studio.One.4.with.Bjorn.Akesson.part6.rar
https://rapidgator.net/file/610bf05060b5454100a5efa1b4fcfbea/amoat.How.To.Make.Tech.Trance.in.Studio.One.4.with.Bjorn.Akesson.part7.rar




Sponsored High Speed Downloads
9493 dl's @ 3203 KB/s
Download Now [Full Version]
9723 dl's @ 3603 KB/s
Download Link 1 - Fast Download
8006 dl's @ 2987 KB/s
Download Mirror - Direct Download



Search More...
How To Make Tech Trance in Studio One 4 with Bjorn Akesson

Search free ebooks in ebookee.com!


Related Archive Books

Archive Books related to "How To Make Tech Trance in Studio One 4 with Bjorn Akesson":



Links
Download this book

No active download links here?
Please check the description for download links if any or do a search to find alternative books.


Related Books


Comments

No comments for "How To Make Tech Trance in Studio One 4 with Bjorn Akesson".


    Add Your Comments
    1. Download links and password may be in the description section, read description carefully!
    2. Do a search to find mirrors if no download links or dead links.
    Back to Top