Kelby Training - The Photoshop CS5 7-Point System for Camera Raw|FLV | VP6 1000kbps | English | 852x480 | 24fps | 1h 57mins | MP3 stereo 128kbps | 576 MB

Date: 01.01.2011

ISBN: 0000000000

Category: Uncategorized


Posted on 2012-03-08, by LionFar.

Description




KELBY TRAINING - THE PHOTOSHOP CS5 7-POINT SYSTEM FOR CAMERA RAWFLV | VP6 1000KBPS | ENGLISH | 852X480 | 24FPS | 1H 57MINS | MP3 STEREO 128KBPS |576,36 Mb

Imagine being able to open any image in Photoshop CS5′s Camera Raw, and know exactly what to do first, what to do second, and how to take it all the way from Flat to Fabulous, just like a pro. That’s the groundbreaking premise behind this course, from Photoshop User magazine’s Editor-in-Chief Scott Kelby (the world’s #1 bestselling Adobe Photoshop author), who rewrites the rules for teaching Photoshop by whittling the Raw photo correction process down to just the seven most important, most essential techniques. In this course, Scott reveals his Seven Point System for Camera Raw that not only breaks things down to just seven simple (yet powerful) techniques, but he’s found a proven method to make it really stick.

01 Introduction 2:19
02 Opening Jpegs in Camera Raw 4:43
03 Updating Your Process 3:54
04 Camera Profiles 5:54
05 White Balance 9:00
06 Editing JPGs 2:26
07 Exposure 10:25
08 Contrast 8:20
09 Clarity/Vibrance 7:22
10 Fill Light 3:55
11 Local Adjustments 13:44
12 Finishing Effects, Part 1 7:47
13 Finishing Effects, Part 2 3:37
14 Finishing Effects, Part 3 5:23
15 Double Processing, Part 1 15:17
16 Double Processing, Part 2 3:01
17 Start to Finish 9:37
18 Conclusion 1:11

Mediainfo:
Format : Flash Video
File size : 25.9 MiB
Duration : 5mn 53s
Overall bit rate : 614 Kbps
Encoded date : Thu Apr 8 16:47:18 2010
Writing application : Paul Wilder / Sorenson Squeeze / Sorenson Squeeze
Video
Format : VP6
Duration : 5mn 53s
Bit rate : 1 000 Kbps
Width : 852 pixels
Height : 480 pixels
Display aspect ratio : 16:9
Frame rate : 24.000 fps
Bits/(Pixel*Frame) : 0.102
Stream size : 42.2 MiB
Audio
Format : MPEG Audio
Format version : Version 1
Format profile : Layer 3
Duration : 5mn 53s
Bit rate mode : Constant
Bit rate : 128 Kbps
Channel(s) : 2 channels
Sampling rate : 44.1 KHz
Resolution : 16 bits
Stream size : 5.40 MiB (21%)







Download

Download PART1 from Turbobit
Download PART2 from Turbobit
Download PART3 from Turbobit

Download PART1 from Uploaded.to
Download PART2 from Uploaded.to
Download PART3 from Uploaded.to


Sponsored High Speed Downloads
5040 dl's @ 2074 KB/s
Download Now [Full Version]
6614 dl's @ 2620 KB/s
Download Link 1 - Fast Download
7814 dl's @ 3771 KB/s
Download Mirror - Direct Download



Search More...
Kelby Training - The Photoshop CS5 7-Point System for Camera Raw|FLV | VP6 1000kbps | English | 852x480 | 24fps | 1h 57mins | MP3 stereo 128kbps | 576 MB

Search free ebooks in ebookee.com!


Links
Download this book

No active download links here?
Please check the description for download links if any or do a search to find alternative books.


Related Books

  1. Ebooks list page : 17787
  2. 2011-02-23Kelby Online Training The Photoshop CS5 7-Point System for Camera Raw
  3. 2011-01-26Kelby Online Training The Photoshop CS5 7-Point System for Camera Raw
  4. 2011-01-02Kelby Online Training The Photoshop CS5 7-Point System for Camera Raw
  5. 2010-10-02Kelby Online Training The Photoshop CS5 7-Point System for Camera Raw
  6. 2010-09-23Kelby Online Training The Photoshop CS5 7-Point System for Camera Raw
  7. 2010-09-23Kelby Online Training The Photoshop CS5 7-Point System for Camera Raw
  8. 2010-08-31Kelby Online Training The Photoshop CS5 7-Point System for Camera Raw
  9. 2010-05-23Kelby Online Training The Photoshop CS5 7-Point System for Camera Raw
  10. 2010-05-23Kelby Online Training The Photoshop CS5 7-Point System for Camera Raw
  11. 2010-05-01Kelby Online Training The Photoshop CS5 7-Point System for Camera Raw
  12. 2010-05-01Kelby Online Training The Photoshop CS5 7-Point System for Camera Raw-AG
  13. 2010-05-01Kelby Online Training The Photoshop CS5 7-Point System for Camera Raw | 576.39 MB
  14. 2010-05-01[HF]Kelby Online Training The Photoshop CS5 7-Point System for Camera Raw-AG
  15. 2010-06-11The Photoshop CS5 7-Point System for Camera Raw
  16. 2012-03-08Kelby Training - Mastering HDR in Photoshop CS5|FLV | VP6 1000kbps | English | 852x480 | 30fps | 2h 07mins | MP3 stereo 128kbps | 961 MB
  17. 2011-12-22Kelby Online Training- The Photoshop CS5 7-Point System for
  18. 2011-12-12Kelby Online Training/ The Photoshop CS5 7/Point System for
  19. 2010-05-01Kelby Online Training: The Photoshop CS5 7-Point System for
  20. 2010-05-01Kelby Online Training: The Photoshop CS5 7-Point System for

Comments

No comments for "Kelby Training - The Photoshop CS5 7-Point System for Camera Raw|FLV | VP6 1000kbps | English | 852x480 | 24fps | 1h 57mins | MP3 stereo 128kbps | 576 MB".


    Add Your Comments
    1. Download links and password may be in the description section, read description carefully!
    2. Do a search to find mirrors if no download links or dead links.
    Back to Top