Marathon The Patriots Day Bombing 2016 720p HDTV x264-eSc

Category: Technical


Posted on 2016-12-12, by nobihai.

Description

Marathon The Patriots Day Bombing 2016 720p HDTV x264-eSc Marathon The Patriots Day Bombing 2016 720p HDTV x264-eSc|2.7 GB

Marathon.The.Patriots.Day.Bombing.2016.720p.HDTV.x264-eSc

Plot

Gripping documentary focusing on the 2013 Boston Marathon bombing (Boston, Massachusetts, U.S.A.) it's victims and their lives in the aftermath. Follows specific people and their experiences as they adapt and recover from their injuries. Includes behind-the-scenes details of the hunt for the bombers. Graphic photos of the bombing scene and resultant injuries. Comprehensive photodocumentary.

http://www.imdb.com/title/tt6047906/

Cast

Celeste Corcoran ... Herself Sydney Corcoran ... Herself Patrick Downes ... Himself Jessica Kensky ... Herself

Infomation Video ID                                       : 1 Format                                   : AVC Format/Info                              : Advanced Video Codec Format profile                           : High@L3.1 Format settings, CABAC                   : Yes Format settings, ReFrames                : 5 frames Codec ID                                 : avc1 Codec ID/Info                            : Advanced Video Coding Duration                                 : 1 h 47 min Bit rate                                 : 3 265 kb/s Width                                    : 1 280 pixels Height                                   : 716 pixels Display aspect ratio                     : 16:9 Frame rate mode                          : Variable Frame rate                               : 29.970 FPS Minimum frame rate                       : 14.985 FPS Maximum frame rate                       : 29.970 FPS Color space                              : YUV Chroma subsampling                       : 4:2:0 Bit depth                                : 8 bits Scan type                                : Progressive Bits/(Pixel*Frame)                       : 0.119 Stream size                              : 2.44 GiB (89%) Writing library                          : x264 core 142 r2479 dd79a61 Encoding settings                        : cabac=1 / ref=5 / deblock=1:0:0 / analyse=0x3:0x113 / me=umh / subme=8 / psy=1 / psy_rd=1.00:0.00 / mixed_ref=1 / me_range=16 / chroma_me=1 / trellis=1 / 8x8dct=1 / cqm=0 / deadzone=21,11 / fast_pskip=1 / chroma_qp_offset=-2 / threads=12 / lookahead_threads=2 / sliced_threads=0 / nr=0 / decimate=1 / interlaced=0 / bluray_compat=0 / constrained_intra=0 / bframes=3 / b_pyramid=2 / b_adapt=2 / b_bias=0 / direct=3 / weightb=1 / open_gop=0 / weightp=2 / keyint=300 / keyint_min=30 / scenecut=40 / intra_refresh=0 / rc_lookahead=50 / rc=crf / mbtree=1 / crf=18.0 / qcomp=0.60 / qpmin=0 / qpmax=69 / qpstep=4 / vbv_maxrate=17500 / vbv_bufsize=17500 / crf_max=0.0 / nal_hrd=none / filler=0 / ip_ratio=1.40 / aq=1:1.00 Encoded date                             : UTC 2016-12-06 22:06:07 Tagged date                              : UTC 2016-12-06 22:06:07 Color range                              : Limited Color primaries                          : BT.709 Transfer characteristics                 : BT.709 Matrix coefficients                      : BT.709 Audio ID                                       : 2 Format                                   : AC-3 Format/Info                              : Audio Coding 3 Mode extension                           : CM (complete main) Format settings, Endianness              : Big Codec ID                                 : ac-3 Duration                                 : 1 h 47 min Bit rate mode                            : Constant Bit rate                                 : 384 kb/s Channel(s)                               : 2 channels Channel positions                        : Front: L R Sampling rate                            : 48.0 kHz Frame rate                               : 31.250 FPS (1536 spf) Bit depth                                : 16 bits Compression mode                         : Lossy Stream size                              : 294 MiB (11%) Title                                    : Stereo / Stereo Language                                 : English Default                                  : Yes Alternate group                          : 1 Encoded date                             : UTC 2016-12-06 22:06:07 Tagged date                              : UTC 2016-12-06 22:06:07
 
http://nitroflare.com/view/E965B1C31798ED3/20161012131918_251818.part1.rar http://uploaded.net/file/s2x67aw4/20161012131918_251818.part1.rar http://nitroflare.com/view/9DFC8CAC47844BD/20161012131918_251818.part2.rar http://uploaded.net/file/5nwi5u0u/20161012131918_251818.part2.rar

http://www.irarchive.com/vip/dl/6/1ii032mtai/20161012131918_251818.part1.rar http://www.irarchive.com/vip/dl/6/h42ewmzpow/20161012131918_251818.part2.rar


Sponsored High Speed Downloads
8199 dl's @ 3237 KB/s
Download Now [Full Version]
7806 dl's @ 2014 KB/s
Download Link 1 - Fast Download
6768 dl's @ 2811 KB/s
Download Mirror - Direct Download



Search More...
Marathon The Patriots Day Bombing 2016 720p HDTV x264-eSc

Search free ebooks in ebookee.com!


Links
Download this book

No active download links here?
Please check the description for download links if any or do a search to find alternative books.


Related Books

  1. Ebooks list page : 29671
  2. 2017-01-14Marathon The Patriots Day Bombing 2016 1080p WEBRip DD5.1 x264-monkee
  3. 2017-01-14Marathon The Patriots Day Bombing 2016 1080p WEBRip DD5.1 x264-monkee
  4. 2016-12-19Marathon: The Patriots Day Bombing (2016) DOCU 1080p WEB-DL DD 5.1 H264-FGT
  5. 2016-12-05Marathon The Patriots Day Bombing 2016 1080p HBO WEBRip H 264-monkee
  6. 2017-02-08The Devil's Horn (2016) 720p HDTV x264-aAF
  7. 2017-02-08The Devil's Horn (2016) 720p HDTV x264-aAF
  8. 2017-02-08SBS - The Ukes in America (2016) 720p HDTV x264-CBFM
  9. 2017-02-08SBS - The Ukes in America (2016) 720p HDTV x264-CBFM
  10. 2017-02-06Travel Channel - Mysteries At The Museum: Special Alcatraz (2016) 720p HDTV x264-DHD
  11. 2017-02-06Travel Channel - Mysteries At The Museum: Special Alcatraz (2016) 720p HDTV x264-DHD
  12. 2017-01-20Travel Channel - Mysteries At The Museum: Special Titanic (2016) 720p HDTV x264-W4F
  13. 2017-01-20Travel Channel - Mysteries At The Museum: Special Titanic (2016) 720p HDTV x264-W4F
  14. 2017-01-20BBC - Top of the Pops, Christmas Special (2016) 720p HDTV x264-PLUTONiUM
  15. 2017-01-20BBC - Top of the Pops, Christmas Special (2016) 720p HDTV x264-PLUTONiUM
  16. 2017-01-20Channel 5 - The Peter Kay Story (2016) 720p HDTV x264-FEET
  17. 2017-01-20Channel 5 - The Peter Kay Story (2016) 720p HDTV x264-FEET
  18. 2017-01-04ITV Aberfan The Young Wives Club 2016 720p HDTV x264 AAC-MVGroup
  19. 2017-01-04ITV Aberfan The Young Wives Club 2016 720p HDTV x264 AAC-MVGroup
  20. 2016-12-29NHK Cycle Around Japan Riding with the Wind in Toyama 2016 720p HDTV x264 AAC-MVGroup

Comments

No comments for "Marathon The Patriots Day Bombing 2016 720p HDTV x264-eSc".


    Add Your Comments
    1. Download links and password may be in the description section, read description carefully!
    2. Do a search to find mirrors if no download links or dead links.
    Back to Top