Metal Guitar - with Alexi Laiho of Children of Bodom Level 1 and 2

Category: Tutorial


Posted on 2018-11-02, by uswarez.

Description



Metal Guitar - with Alexi Laiho of Children of Bodom Level 1 and 2
2xDVD5 | English | VIDEO_TS | 720 x 480 | MPEG2 ~4997 kbps | 29.970 fps
AC-3 192 Kbps 48.0 KHz | 2 channel | 140 minutes | 5.59 GB
Genre: eLearning Video / Guitar lesson




A true virtuoso, Alexi Laiho from Children of Bodom is known for his incredible six string momentum and melodic speed. In Level 1 he will challenge you to expand your mind and you own guitar mastery. Learn Single note heavy riffs used to create songs and his favorite scales used to create melodic and shredding leads. He shares with you his personal tricks for speed picking, pick harmonics and right hand tapping!
Alexi will teach you chord voicings he uses to create powerful guitar progressions and a whole lot more. The powerful backing tracks included put you at the center of your own metal band! This program is not for the faint of heart!

Alexi Laiho is a highly acclaimed guitarist and front man of metal band Children of Bodom. He has emerged as modern guitar hero whose virtuosity is inspiring a new a generation of guitarist who want to excel at playing. In Level 2 Alexi encourages you to find the balance between technique and attitude. He walks you through many of his leads in their entirety and teaches you his mastery of sweep picking and some of the most advanced arpeggios every written. Learn to create two part harmony guitar sections, play syncopated rhythms and more in the master class with the man who inspiring a new generation of players.

General
Complete name : VTS_01_1.VOB
Format : MPEG-PS
File size : 1 024 MiB
Duration : 27 min 2 s
Overall bit rate mode : Variable
Overall bit rate : 5 295 kb/s

Video
ID : 224 (0xE0)
Format : MPEG Video
Format version : Version 2
Format profile :
Format settings : CustomMatrix / BVOP
Format settings, BVOP : Yes
Format settings, Matrix : Custom
Format settings, GOP : M=3, N=15
Format settings, picture structure : Frame
Duration : 27 min 2 s
Bit rate mode : Variable
Bit rate : 4 997 kb/s
Maximum bit rate : 7 500 kb/s
Width : 720 pixels
Height : 480 pixels
Display aspect ratio : 4:3
Frame rate : 29.970 (30000/1001) FPS
Standard : NTSC
Color space : YUV
Chroma subsampling : 4:2:0
Bit depth : 8 bits
Scan type : Interlaced
Scan order : Bottom Field First
Compression mode : Lossy
Bits/(Pixel*Frame) : 0.482
Time code of first frame : 01:00:00;00
Time code source : Group of pictures header
GOP, Open/Closed : Closed
Stream size : 966 MiB (94%)
Color primaries : BT.601 NTSC
Transfer characteristics : BT.601
Matrix coefficients : BT.601

Audio
ID : 189 (0xBD)-128 (0x80)
Format : AC-3
Format/Info : Audio Coding 3
Muxing mode : DVD-Video
Duration : 27 min 1 s
Bit rate mode : Constant
Bit rate : 192 kb/s
Channel(s) : 2 channels
Channel positions : Front: L R
Sampling rate : 48.0 kHz
Frame rate : 31.250 FPS (1536 SPF)
Bit depth : 16 bits
Compression mode : Lossy
Stream size : 37.1 MiB (4%)
Service kind : Complete Main

Menu



I recommends Buy premimum account for High speed+parallel downloads!

Rapidgator

https://rapidgator.net/file/d3b1abdb066448e3f96b5fb3f5d37e60/m1f5f.Metal.Guitar..with.Alexi.Laiho.of.Children.of.Bodom.Level.1.and.2.part1.rar.html
https://rapidgator.net/file/5262e997268549a7d27fe3b126a98d76/m1f5f.Metal.Guitar..with.Alexi.Laiho.of.Children.of.Bodom.Level.1.and.2.part2.rar.html
https://rapidgator.net/file/39583b1dea85200e8494875a2050d0e8/m1f5f.Metal.Guitar..with.Alexi.Laiho.of.Children.of.Bodom.Level.1.and.2.part3.rar.html
https://rapidgator.net/file/d7e2a1a4f786a824d3c5d5fb5a83a6a4/m1f5f.Metal.Guitar..with.Alexi.Laiho.of.Children.of.Bodom.Level.1.and.2.part4.rar.html
https://rapidgator.net/file/8d5aa2853a1b11aca0958b5b3df2b1f2/m1f5f.Metal.Guitar..with.Alexi.Laiho.of.Children.of.Bodom.Level.1.and.2.part5.rar.html
https://rapidgator.net/file/36194c67a68d7205d464c6913d659467/m1f5f.Metal.Guitar..with.Alexi.Laiho.of.Children.of.Bodom.Level.1.and.2.part6.rar.html


Nitroflare

http://nitroflare.com/view/5728D30D66F907B/m1f5f.Metal.Guitar..with.Alexi.Laiho.of.Children.of.Bodom.Level.1.and.2.part1.rar
http://nitroflare.com/view/430129C99F18143/m1f5f.Metal.Guitar..with.Alexi.Laiho.of.Children.of.Bodom.Level.1.and.2.part2.rar
http://nitroflare.com/view/56D30D952FF186A/m1f5f.Metal.Guitar..with.Alexi.Laiho.of.Children.of.Bodom.Level.1.and.2.part3.rar
http://nitroflare.com/view/51ACFA1CE3BA539/m1f5f.Metal.Guitar..with.Alexi.Laiho.of.Children.of.Bodom.Level.1.and.2.part4.rar
http://nitroflare.com/view/568A42E4EB8664B/m1f5f.Metal.Guitar..with.Alexi.Laiho.of.Children.of.Bodom.Level.1.and.2.part5.rar
http://nitroflare.com/view/0F84B536418A355/m1f5f.Metal.Guitar..with.Alexi.Laiho.of.Children.of.Bodom.Level.1.and.2.part6.rar


Sponsored High Speed Downloads
6909 dl's @ 2656 KB/s
Download Now [Full Version]
5223 dl's @ 3933 KB/s
Download Link 1 - Fast Download
8257 dl's @ 3460 KB/s
Download Mirror - Direct Download



Search More...
Metal Guitar - with Alexi Laiho of Children of Bodom Level 1 and 2

Search free ebooks in ebookee.com!


Related Archive Books

Archive Books related to "Metal Guitar - with Alexi Laiho of Children of Bodom Level 1 and 2":



Links
Download this book

No active download links here?
Please check the description for download links if any or do a search to find alternative books.


Related Books


Comments

No comments for "Metal Guitar - with Alexi Laiho of Children of Bodom Level 1 and 2".


    Add Your Comments
    1. Download links and password may be in the description section, read description carefully!
    2. Do a search to find mirrors if no download links or dead links.
    Back to Top