Paul Gilbert - Get Out Of My Yard Guitar Instructional DVD

Category: Tutorial


Posted on 2018-12-30, by elegance.

Description





Paul Gilbert - Get Out Of My Yard: Guitar Instructional DVD
DVD5 in ISO-image | English | VIDEO_TS | 720 x 480 | MPEG2 ~6628 kbps | 29 fps
AC-3 192 Kbps 48.0 KHz | 2 channels | 02:14:07 | 6.21 GB
Genre: eLearning Video / Guitar lesson




Hot off his latest tour with G3 featuring Joe Satriani and John Petrucci, Paul Gilbert presents his amazing, brand new DVD containing over two hours of personal guitar instruction and live performances from the world's most insane shred guitarist. Contains over 2 hours of personal guitar instruction and live performances from the world's most insane guitarist, Paul Gilbert. WARNING: Your Playing May Never Be The Same!!!

also You can find my other great:

https://rapu.world/search/?category_slug=&query=Guitar&language=7&age=&author=ParRus&search=1

General
Complete name : VTS_01_3.VOB
Format : MPEG-PS
File size : 1 024 MiB
Duration : 20 min 34 s
Overall bit rate mode : Variable
Overall bit rate : 6 959 kb/s

Video
ID : 224 (0xE0)
Format : MPEG Video
Format version : Version 2

Format settings : CustomMatrix / BVOP
Format settings, BVOP : Yes
Format settings, Matrix : Custom
Format settings, GOP : M=3, N=15
Format settings, picture structure : Frame
Duration : 20 min 34 s
Bit rate mode : Variable
Bit rate : 6 628 kb/s
Maximum bit rate : 7 700 kb/s
Width : 720 pixels
Height : 480 pixels
Display aspect ratio : 4:3
Frame rate : 29.970 (30000/1001) FPS
Standard : NTSC
Color space : YUV
Chroma subsampling : 4:2:0
Bit depth : 8 bits
Scan type : Interlaced
Scan order : Bottom Field First
Compression mode : Lossy
Bits/(Pixel*Frame) : 0.640
Time code of first frame : 01:42:41;13
Time code source : Group of pictures header
GOP, Open/Closed : Closed
Stream size : 975 MiB (95%)
Color primaries : BT.601 NTSC
Transfer characteristics : BT.601
Matrix coefficients : BT.601

Audio
ID : 189 (0xBD)-128 (0x80)
Format : AC-3
Format/Info : Audio Coding 3
Muxing mode : DVD-Video
Duration : 20 min 34 s
Bit rate mode : Constant
Bit rate : 192 kb/s
Channel(s) : 2 channels
Channel positions : Front: L R
Sampling rate : 48.0 kHz
Frame rate : 31.250 FPS (1536 SPF)
Bit depth : 16 bits
Compression mode : Lossy
Delay relative to video : -211 ms
Stream size : 28.2 MiB (3%)
Service kind : Complete Main

Menu

Screenshots







:

I recommends Buy premimum account for High speed+parallel downloads!

Nitroflare

http://nitroflare.com/view/420EE425F2D7DEE/xvior.Paul.Gilbert..Get.Out.Of.My.Yard.Guitar.Instructional.DVD.part1.rar
http://nitroflare.com/view/09FAE642FD5B413/xvior.Paul.Gilbert..Get.Out.Of.My.Yard.Guitar.Instructional.DVD.part2.rar
http://nitroflare.com/view/49741D7A5EB2F5A/xvior.Paul.Gilbert..Get.Out.Of.My.Yard.Guitar.Instructional.DVD.part3.rar
http://nitroflare.com/view/22539794600E91F/xvior.Paul.Gilbert..Get.Out.Of.My.Yard.Guitar.Instructional.DVD.part4.rar
http://nitroflare.com/view/C56957B7DE0FD47/xvior.Paul.Gilbert..Get.Out.Of.My.Yard.Guitar.Instructional.DVD.part5.rar
http://nitroflare.com/view/F7B5AC07AF7346C/xvior.Paul.Gilbert..Get.Out.Of.My.Yard.Guitar.Instructional.DVD.part6.rar
http://nitroflare.com/view/1A62885B0D2F27E/xvior.Paul.Gilbert..Get.Out.Of.My.Yard.Guitar.Instructional.DVD.part7.rar


Rapidgator

https://rapidgator.net/file/99c68af4bb53f74880acfe6282a9e255/xvior.Paul.Gilbert..Get.Out.Of.My.Yard.Guitar.Instructional.DVD.part1.rar.html
https://rapidgator.net/file/6dea621cd2ec28f537957f77598094ce/xvior.Paul.Gilbert..Get.Out.Of.My.Yard.Guitar.Instructional.DVD.part2.rar.html
https://rapidgator.net/file/4cf9ac61ad752121487df295274b5e00/xvior.Paul.Gilbert..Get.Out.Of.My.Yard.Guitar.Instructional.DVD.part3.rar.html
https://rapidgator.net/file/3dc9ccf5553f82347f8091cc4328091c/xvior.Paul.Gilbert..Get.Out.Of.My.Yard.Guitar.Instructional.DVD.part4.rar.html
https://rapidgator.net/file/77ffdf137ce41c17c320576317d378ab/xvior.Paul.Gilbert..Get.Out.Of.My.Yard.Guitar.Instructional.DVD.part5.rar.html
https://rapidgator.net/file/1ddbade6952a369cb6c9a4c0074c5fbf/xvior.Paul.Gilbert..Get.Out.Of.My.Yard.Guitar.Instructional.DVD.part6.rar.html
https://rapidgator.net/file/af955c7f44db6b7d3fd2f20699ba7e18/xvior.Paul.Gilbert..Get.Out.Of.My.Yard.Guitar.Instructional.DVD.part7.rar.html


Sponsored High Speed Downloads
6146 dl's @ 2772 KB/s
Download Now [Full Version]
5704 dl's @ 2263 KB/s
Download Link 1 - Fast Download
5414 dl's @ 3129 KB/s
Download Mirror - Direct Download



Search More...
Paul Gilbert - Get Out Of My Yard Guitar Instructional DVD

Search free ebooks in ebookee.com!


Related Archive Books

Archive Books related to "Paul Gilbert - Get Out Of My Yard Guitar Instructional DVD":



Links
Download this book

No active download links here?
Please check the description for download links if any or do a search to find alternative books.


Related Books


Comments

No comments for "Paul Gilbert - Get Out Of My Yard Guitar Instructional DVD".


    Add Your Comments
    1. Download links and password may be in the description section, read description carefully!
    2. Do a search to find mirrors if no download links or dead links.
    Back to Top