Sadie Nardini - 14 Day Yoga Detox & Empowerment Course (2012)

Category: Family


Posted on 2012-10-04. By anonymous.

Description


Sadie Nardini - 14 Day Yoga Detox & Empowerment Course
DVDRip | English | AVI | 624 x 352 | XviD ~1260 kbps | 23.976 fps
MP3 | 128 kbps | 48.0 KHz | 2 channels | 07:44:09 | 4.55 GB
Genre: Video Training / Yoga, Fitness

“This fun and simple real-world detox, empowerment and excess weight loss course is taught by Sadie Nardini, one of yoga's rising celebrity teachers, and an expert in combining specific yoga workouts with diet & healthier living. The course is designed to teach you a 14 day routine that you can follow throughout your life to maintain your body more free of toxins and extra weight. Her pioneering method of teaching shows you exactly how effective yoga can be while keeping you relaxed, enthusiastic, and entertained. Simply follow her guidance by taking one step at a time for 14 days. After you're done you'll feel refreshed, youthful, and ready to start again!”
A new bonus workout has just been added for the 14 day program! It will help you shake things up, and give you an option that you can use anytime, during or after the 14 days!

What is Ultimate Wellness?

Transformation happens on many fronts: in the way you treat your body through fitness and food, in the quality of the relationships with yourself or others you cultivate, and the quality of the choices you make.

Sadie offers you yoga, not just as a way to stay fit, but yoga as a multifaceted practice that helps you lead a healthy, happy and empowered life. This is what Sadie calls "Ultimate Wellness."

Course Requirements...

Some shopping for smoothie ingredients, a yoga mat or non-slip surface, and a dedication to making a change for the better.

Who Should Attend?

Anyone seeking to transform their body, mind and health in just 2 weeks. This course includes strong yoga with modifications for beginners. You should be non-seriously injured and capable of some exercise.

Sadie Nardini
Sadie is a renowned Ultimate Wellness and Yoga expert and the founder of Core Strength Vinyasa Yoga. She travels internationally bringing a real-world mix of eastern and western techniques to her yoga and lifestyle teachings. Yoga Journal calls her a “star instructor” for her ability to inspire real transformation in body mind and heart.

Her 15 years of study in the yogic arts, energetics, eastern and western philosophy, nutrition, anatomy and Ninja training, attract students of all styles seeking to draw the powerful energy of Center into their yoga practice and their lives. Sadie’s signature Core Poses amplify the benefits of any practice, as she directs her students to access and express themselves from that deep connection.

Her Total Body Transformation DVD series are #1 bestsellers on Amazon. Sadie is on the faculty at Omega and Kripalu, and tours with the Yoga Journal Conferences. She’s the Ultimate Wellness and Yoga expert for the Dr. Oz based website phenomenon Sharecare.

Her accessible teaching style, down-to-earth yoga tips and centered-living tools are regularly covered by the national media including Elle, Glamour, Self, the New York Times, CNN, Yoga Journal. She’s a regular blogger and columnist for national magazines like Yoga Journal, Martha Stewart’s Whole Living Magazine, the Huffington Post and the Elephant Journal. Sadie is also the author of the life-shifting book, “The Road Trip Guide to the Soul” (Wiley, 2008) which is currently being produced as a TV show.

She is a prolific presence online with over 200 videos, 6 million views and 20,000 regular subscribers, as well as over 10,000 fans on Facebook. She lives and Oms in Brooklyn, New York and takes it on the road touring internationally sharing her gifts.

MediaInfo:
General
Complete name : Hip and Shoulder Opener.avi
Format : AVI
Format/Info : Audio Video Interleave
File size : 848 MiB
Duration : 1h 24mn
Overall bit rate : 1 398 Kbps
Movie name : Hip and Shoulder Opener
Writing application : VirtualDubMod 1.5.10.3 | www.virtualdub-fr.org || (build 2550/release
Video #0
ID : 0
Format : MPEG-4 Visual
Format profile : Advanced Simple@L5
Format settings, BVOP : Yes
Format settings, QPel : No
Format settings, GMC : No warppoints
Format settings, Matrix : Custom
Codec ID : XVID
Codec ID/Hint : XviD
Duration : 1h 24mn
Bit rate : 1 260 Kbps
Width : 624 pixels
Height : 352 pixels
Display aspect ratio : 16:9
Frame rate : 23.976 fps
Color space : YUV
Chroma subsampling : 4:2:0
Bit depth : 8 bits
Scan type : Progressive
Compression mode : Lossy
Bits/(Pixel*Frame) : 0.239
Stream size : 765 MiB (90%)
Writing library : XviD 65
Audio #1
ID : 1
Format : MPEG Audio
Format version : Version 1
Format profile : Layer 3
Codec ID : 55
Codec ID/Hint : MP3
Duration : 1h 24mn
Bit rate mode : Constant
Bit rate : 128 Kbps
Channel(s) : 2 channels
Sampling rate : 48.0 KHz
Compression mode : Lossy
Stream size : 77.7 MiB (9%)
Alignment : Aligned on interleaves
Interleave, duration : 42 ms (1.00 video frame)
Interleave, preload duration : 504 ms
Writing library : LAME3.99.1
Screenshots





Sample pages of the attached documents - PDF



For more, Visit my AH-blog

no mirrors please, Follow The Rules


Sponsored High Speed Downloads
5883 dl's @ 3684 KB/s
Download Now [Full Version]
8676 dl's @ 2662 KB/s
Download Link 1 - Fast Download
6535 dl's @ 3732 KB/s
Download Mirror - Direct Download



Search More...
Sadie Nardini - 14 Day Yoga Detox & Empowerment Course (2012)

Search free ebooks in ebookee.com!


Links
Download this book

No active download links here?
Please check the description for download links if any or do a search to find alternative books.


Related Books


Comments

No comments for "Sadie Nardini - 14 Day Yoga Detox & Empowerment Course (2012)".


    Add Your Comments
    1. Download links and password may be in the description section, read description carefully!
    2. Do a search to find mirrors if no download links or dead links.
    Back to Top